IPB

Здравствуйте, гость ( Вход | Регистрация )

> Правила. Прочитать и запомнить.

Пункт 1. Правильное оформление публикации:
1.1. В названии темы указывать только название группы (сборника) или имя и фамилию исполнителя. Ничего другого быть не должно!
1.2. Непосредственно в сообщении обязательно указывать: название группы, название альбома, год выпуска, список композиций (треклист), стиль исполнения (жанр).
Желательна лицевая обложка альбома, размер превью - не более 400 пикселей.
Наличие трек-листа в текстовом виде обязательно.
1.3. Обязательно указывается формат файлов (WAV, FLAС, APE и т.п.), наличие LOG- и CUE-файлов, обложек, происхождение, - собственный рип или найден в сети.
1.4. Ссылки должны быть скрыты с помощью тега HIDE (в редакторе это иконка с замочком).

Пункт 2. Запрещается:
2.1. Создавать новые темы, если для этой группы тема уже создана до Вас. Пользуйтесь поиском!
2.2. Неправильное оформление публикации. Такие публикации будут удаляться в "Корзину тем", если без указания причины, - читайте Правила форума, либо обращайтесь к модераторам.
2.3. Неуважительные высказывания по отношению к другим посетителям, а также мат в любой форме.
2.4. Ссылки, содержащие названия других сайтов в тексте ссылки, пароле, а также прямые ссылки на другие сайты, за исключением чисто информационных.
2.5. Реклама в любом виде.
2.6. Трансляция картинок с других сайтов, не предназначенных для их хранения, а также с imageshack.us.
2.7. Вопросы по поиску музыки в других темах, кроме "Поиск музыки".

Пункт 3. Разное:
3.1. За сохранность ссылок, доступность файлообменных сетей, а также достоверность выкладываемых материалов Администрация форума ответственности не несет. Все подобные вопросы решаются в частном порядке с авторами публикаций.
3.2. Во избежание засорения тем и увеличения нагрузки на сервер, настоятельно рекомендуется вместо создания благодарственных постов, использовать кнопку "Спасибо".
3.3. Злостные нарушители Правил будут наказаны на усмотрение модераторов, вплоть до бана.

Rapidshare.com, ifolder.ru, depositfiles.com и прочие обменники. Обсуждения и советы

 
Ответить в эту темуОткрыть новую тему
> Моей душе покоя нет, Песни и музыка из фильмов Эльдара Рязанова
elektron
сообщение 27.12.2008, 0:51
Сообщение #1


чиптюнер-меломан
Группа: Пользователи
****

Сообщений: 244
Регистрация: 13.4.2007
Из: Киев
Пользователь №: 8 604
Спасибо сказали: 295 раз(а)




Моей душе покоя нет (2CD) ©1996
АСТРА, 2002


Изображение
Изображение


Flac+Cue+3%+Covers

Для просмотра этого блока необходима регистрация


friends.gif

Сообщение отредактировал elektron - 27.12.2008, 2:01


--------------------
Ремонт LCD телевизоров в Киеве
www.lcd.ucoz.ua
Пользователь в офлайнеКарточка пользователяОтправить личное сообщение
Вернуться в начало страницы
+Ответить с цитированием данного сообщения
waldy-m
сообщение 27.12.2008, 15:55
Сообщение #2


Профессор
Группа: Пользователи
*****

Сообщений: 480
Регистрация: 17.1.2007
Из: Germany
Пользователь №: 1 791
Спасибо сказали: 1018 раз(а)




CUE с правильными тэгами

CD1

Код

REM DATE 2002
REM DISCID 720E2D1A
REM COMMENT "ExactAudioCopy v0.99pb4"
PERFORMER "Various"
TITLE "Моей душе покоя нет CD1"
FILE "Various - Моей душе покоя нет CD1.flac" WAVE
  TRACK 01 AUDIO
    TITLE "Пять минут"
    PERFORMER "Людмила Гурченко"
    INDEX 01 00:00:00
  TRACK 02 AUDIO
    TITLE "Песенка о хорошем настроении"
    PERFORMER "Людмила Гурченко"
    INDEX 00 03:42:13
    INDEX 01 03:44:12
  TRACK 03 AUDIO
    TITLE "О чём я печалюсь, о чём я грущу"
    PERFORMER "Николай Рыбников"
    INDEX 00 06:23:08
    INDEX 01 06:25:07
  TRACK 04 AUDIO
    TITLE "Душа ни по ком до сих пор не страдала"
    PERFORMER "Николай Рыбников"
    INDEX 00 08:35:43
    INDEX 01 08:37:42
  TRACK 05 AUDIO
    TITLE "Я признаться проявил глупость бесконечную"
    PERFORMER "Юрий Белов"
    INDEX 00 10:27:74
    INDEX 01 10:29:73
  TRACK 06 AUDIO
    TITLE "Песенка о Москве"
    PERFORMER "Зоя Виноградова"
    INDEX 00 11:54:68
    INDEX 01 11:56:67
  TRACK 07 AUDIO
    TITLE "Прелестница младая, прощаюсь я с тобой"
    PERFORMER "Лариса Голубкина"
    INDEX 00 14:31:11
    INDEX 01 14:33:10
  TRACK 08 AUDIO
    TITLE "Колыбельная Светлане"
    PERFORMER "Лариса Голубкина"
    INDEX 00 15:33:41
    INDEX 01 15:35:40
  TRACK 09 AUDIO
    TITLE "Песенка Лепелетье"
    PERFORMER "Артур Эйзен"
    INDEX 00 18:36:09
    INDEX 01 18:38:08
  TRACK 10 AUDIO
    TITLE "Романс жермон"
    PERFORMER "Татьяна Шмыга"
    INDEX 00 20:44:46
    INDEX 01 20:46:45
  TRACK 11 AUDIO
    TITLE "Давным-давно"
    PERFORMER "Лариса Голубкина"
    INDEX 00 22:40:45
    INDEX 01 22:42:44
  TRACK 12 AUDIO
    TITLE "Песня корреспондентов"
    PERFORMER "Владимир Лыньковский"
    INDEX 00 23:51:74
    INDEX 01 23:53:73
  TRACK 13 AUDIO
    TITLE "Добрый вечер"
    PERFORMER "Лариса Мондрус"
    INDEX 00 26:48:28
    INDEX 01 26:50:27
  TRACK 14 AUDIO
    TITLE "Вальс"
    PERFORMER "Андрей Петров"
    INDEX 00 29:40:48
    INDEX 01 29:42:47
  TRACK 15 AUDIO
    TITLE "Мне нравится..."
    PERFORMER "Алла Пугачёва"
    INDEX 00 33:22:33
    INDEX 01 33:24:32
  TRACK 16 AUDIO
    TITLE "Никого не будет в доме"
    PERFORMER "Сергей Никитин"
    INDEX 00 34:58:21
    INDEX 01 35:00:20
  TRACK 17 AUDIO
    TITLE "У зеркала"
    PERFORMER "Алла Пугачёва"
    INDEX 00 37:19:41
    INDEX 01 37:21:40
  TRACK 18 AUDIO
    TITLE "Со мною вот что происходит"
    PERFORMER "Сергей Никитин"
    INDEX 00 39:00:55
    INDEX 01 39:02:54
  TRACK 19 AUDIO
    TITLE "Я спросил у ясеня"
    PERFORMER "Сергей Никитин"
    INDEX 00 41:25:65
    INDEX 01 41:27:64
  TRACK 20 AUDIO
    TITLE "По улице моей"
    PERFORMER "Алла Пугачёва"
    INDEX 00 44:34:56
    INDEX 01 44:36:55
  TRACK 21 AUDIO
    TITLE "Если у вас нету тёти"
    PERFORMER "Сергей Никитин"
    INDEX 00 47:29:02
    INDEX 01 47:31:01
  TRACK 22 AUDIO
    TITLE "На Тихорецкую"
    PERFORMER "Алла Пугачёва"
    INDEX 00 49:23:43
    INDEX 01 49:25:42
  TRACK 23 AUDIO
    TITLE "Вступление"
    PERFORMER "Микаэл Таривердиев"
    INDEX 00 50:52:62
    INDEX 01 50:54:61
  TRACK 24 AUDIO
    TITLE "Возвращение Ипполита"
    PERFORMER "Микаэл Таривердиев"
    INDEX 00 52:53:01
    INDEX 01 52:55:00
  TRACK 25 AUDIO
    TITLE "Баллада о прокуренном вагоне"
    PERFORMER "Валентина Талызина и Андрей Мягков"
    INDEX 00 55:43:73
    INDEX 01 55:45:72
  TRACK 26 AUDIO
    TITLE "На Тихорецкую"
    PERFORMER "Трио ''Меридиан''"
    INDEX 00 58:26:02
    INDEX 01 58:28:01


CD2

Код

REM DATE 2002
REM DISCID AF12771C
REM COMMENT "ExactAudioCopy v0.99pb4"
PERFORMER "Various"
TITLE "Моей душе покоя нет CD2"
FILE "Various - Моей душе покоя нет CD2.flac" WAVE
  TRACK 01 AUDIO
    TITLE "Моей душе покоя нет"
    PERFORMER "Андрей Мягков"
    INDEX 00 00:00:00
    INDEX 01 00:00:37
  TRACK 02 AUDIO
    TITLE "Обрываются речи влюбленных"
    PERFORMER "Алиса Фрейндлих"
    INDEX 01 03:14:00
  TRACK 03 AUDIO
    TITLE "Осень"
    PERFORMER "Андрей Петров"
    INDEX 01 05:06:00
  TRACK 04 AUDIO
    TITLE "Облетают последние маки"
    PERFORMER "Андрей Мягков"
    INDEX 01 07:15:50
  TRACK 05 AUDIO
    TITLE "Утро"
    PERFORMER "Андрей Петров"
    INDEX 01 10:54:62
  TRACK 06 AUDIO
    TITLE "Нас в набитых трамваях болтает"
    PERFORMER "Андрей Мягков"
    INDEX 01 13:38:50
  TRACK 07 AUDIO
    TITLE "У природы нет плохой погоды"
    PERFORMER "Алиса Фрейндлих"
    INDEX 01 15:49:12
  TRACK 08 AUDIO
    TITLE "Дождь"
    PERFORMER "Андрей Петров"
    INDEX 01 18:49:12
  TRACK 09 AUDIO
    TITLE "О бедном гусаре"
    PERFORMER "Станислав Садальский"
    INDEX 01 21:47:62
  TRACK 10 AUDIO
    TITLE "Романс полковника"
    PERFORMER "Валентин Гафт"
    INDEX 01 23:17:50
  TRACK 11 AUDIO
    TITLE "Сердца томная забота"
    PERFORMER "Станислав Садальский и Наталья Гундарева"
    INDEX 01 26:30:25
  TRACK 12 AUDIO
    TITLE "Марш"
    PERFORMER "Андрей Петров"
    INDEX 01 28:03:25
  TRACK 13 AUDIO
    TITLE "Песенка про трубачей"
    PERFORMER "Андрей Миронов"
    INDEX 01 31:15:00
  TRACK 14 AUDIO
    TITLE "Вальс"
    PERFORMER "Андрей Петров"
    INDEX 01 33:49:25
  TRACK 15 AUDIO
    TITLE "Романс Настеньки"
    PERFORMER "Ирина Мазуркевич"
    INDEX 01 36:17:25
  TRACK 16 AUDIO
    TITLE "Друзьям"
    PERFORMER "Андрей Миронов"
    INDEX 01 39:33:00
  TRACK 17 AUDIO
    TITLE "Большая дорога"
    PERFORMER "Андрей Миронов"
    INDEX 01 42:13:25
  TRACK 18 AUDIO
    TITLE "Живем мы что-то без азарта"
    PERFORMER "Людмила Гурченко"
    INDEX 01 46:23:25
  TRACK 19 AUDIO
    TITLE "Романс о романсе"
    PERFORMER "Валентина Пономарева"
    INDEX 01 48:17:12
  TRACK 20 AUDIO
    TITLE "Вальс"
    PERFORMER "Андрей Петров"
    INDEX 01 52:21:00
  TRACK 21 AUDIO
    TITLE "А цыган идет"
    PERFORMER "Никита Михалков"
    INDEX 01 56:33:50
  TRACK 22 AUDIO
    TITLE "Погоня"
    PERFORMER "Андрей Петров"
    INDEX 01 59:28:37
  TRACK 23 AUDIO
    TITLE "Любовь-волшебная страна"
    PERFORMER "Валентина Пономарева"
    INDEX 01 61:38:00
  TRACK 24 AUDIO
    TITLE "Под лаской плюшевого пледа"
    PERFORMER "Валентина Пономарева"
    INDEX 01 64:30:50
  TRACK 25 AUDIO
    TITLE "А напоследок я скажу"
    PERFORMER "Валентина Пономарева"
    INDEX 01 67:13:50
  TRACK 26 AUDIO
    TITLE "Песня бюрократов"
    PERFORMER "Татьяна и Сергей Никитины"
    INDEX 01 69:56:25
  TRACK 27 AUDIO
    TITLE "Романс"
    PERFORMER "Елена Камбурова"
    INDEX 01 72:20:50
  TRACK 28 AUDIO
    TITLE "Ты укрой меня снегом, зима"
    PERFORMER "Александр Малинин"
    INDEX 01 75:30:25
Пользователь в офлайнеКарточка пользователяОтправить личное сообщение
Вернуться в начало страницы
+Ответить с цитированием данного сообщения

Ответить в эту темуОткрыть новую тему
1 чел. читают эту тему (гостей: 1, скрытых пользователей: 0)
Пользователей: 0

 



- Текстовая версия
Яндекс цитирования